11
дек
2019

The Who - Who (2019)

Формат: FLAC, (tracks + .cue), lossless
Год выпуска: 2019
Страна: UK
Жанр: Hard Rock
Продолжительность: 00:57:09
Описание:

01. All This Music Must Fade 03:21
02. Ball and Chain 04:30
03. I Don’t Wanna Get Wise 03:55
04. Detour 03:46
05. Beads on One String (Pete Townshend / Josh Hunsacker) 03:40
06. Hero Ground Zero 04:53
07. Street Song 04:48
08. I’ll Be Back 05:02
09. Break the News (Simon Townshend) 04:30
10. Rockin’ in Rage 04:05
11. She Rocked My World 03:23
12. This Gun Will Misfire [bonus track] 03:35
13. Got Nothing to Prove [bonus track] 03:38
14. Danny and My Ponies [bonus track] 04:04

Доп. информация:
eac
Exact Audio Copy V1.3 from 2. September 2016

EAC extraction logfile from 11. December 2019, 0:32

The Who / WHO (Deluxe edition)

Used drive : ASUS BW-12D1S-U Adapter: 1 ID: 1

Read mode : Secure
Utilize accurate stream : Yes
Defeat audio cache : Yes
Make use of C2 pointers : No

Read offset correction : 667
Overread into Lead-In and Lead-Out : No
Fill up missing offset samples with silence : Yes
Delete leading and trailing silent blocks : No
Null samples used in CRC calculations : Yes
Used interface : Native Win32 interface for Win NT & 2000
Gap handling : Appended to previous track

Used output format : User Defined Encoder
Selected bitrate : 1024 kBit/s
Quality : High
Add ID3 tag : No
Command line compressor : C:Program Files (x86)Exact Audio CopyFLACFLAC.EXE
Additional command line options : -V -8 -T "Genre=%genre%" -T "Artist=%artist%" -T "Title=%title%" -T "Album=%albumtitle%" -T "Date=%year%" -T "Tracknumber=%tracknr%" -T "Comment=%comment%" %source%

TOC of the extracted CD

Track | Start | Length | Start sector | End sector
---------------------------------------------------------
1 | 0:00.00 | 3:20.60 | 0 | 15059
2 | 3:20.60 | 4:29.70 | 15060 | 35304
3 | 7:50.55 | 3:54.48 | 35305 | 52902
4 | 11:45.28 | 3:46.15 | 52903 | 69867
5 | 15:31.43 | 3:40.15 | 69868 | 86382
6 | 19:11.58 | 4:52.45 | 86383 | 108327
7 | 24:04.28 | 4:47.57 | 108328 | 129909
8 | 28:52.10 | 5:01.70 | 129910 | 152554
9 | 33:54.05 | 4:30.30 | 152555 | 172834
10 | 38:24.35 | 4:04.46 | 172835 | 191180
11 | 42:29.06 | 3:22.52 | 191181 | 206382
12 | 45:51.58 | 3:35.31 | 206383 | 222538
13 | 49:27.14 | 3:38.02 | 222539 | 238890
14 | 53:05.16 | 4:04.05 | 238891 | 257195

Track 1

Filename F:Torrents of AutumnWho, the [2019] Who (Target Exclusive Deluxe Edition)
Музыка / Lossless / Рок, Панк, Метал
СКАЧАТЬ БЕСПЛАТНО  [494.3 MB]