23
янв
2019

The Miracles - Miracles (Remastered 2012) (1978)

Формат: FLAC, (tracks + .cue), lossless
Год выпуска: 1978
Страна: USA
Жанр: Soul, Funk, R&B
Продолжительность: 00:30:06
Описание:

1. I Can't Stand It (03:18 )
2. Love Doctor (03:55)
3. The Magic Of Your Eyes (Laura's Eyes) (04:10)
4. Freeway (04:22)
5. Hot Dance (03:02)
6. Mean Machine (03:12)
7. Sad Rain (04:19)
8. Reach For The Sky (03:45)


Доп. информация:
eac
Exact Audio Copy V1.1 from 23. June 2015

EAC extraction logfile from 25. January 2017, 13:08

The Miracles / The Miracles

Used drive : HL-DT-STDVDRAM GE20LU11 Adapter: 1 ID: 2

Read mode : Secure
Utilize accurate stream : Yes
Defeat audio cache : Yes
Make use of C2 pointers : No

Read offset correction : 667
Overread into Lead-In and Lead-Out : No
Fill up missing offset samples with silence : Yes
Delete leading and trailing silent blocks : No
Null samples used in CRC calculations : Yes
Used interface : Native Win32 interface for Win NT & 2000
Gap handling : Appended to previous track

Used output format : User Defined Encoder
Selected bitrate : 128 kBit/s
Quality : High
Add ID3 tag : No
Command line compressor : C:Program Files (x86)Exact Audio CopyFlacflac.exe
Additional command line options : -8 -V -T "ARTIST=%artist%" -T "TITLE=%title%" -T "ALBUM=%albumtitle%" -T "DATE=%year%" -T "TRACKNUMBER=%tracknr%" -T "TOTALTRACKS=%numtracks%" -T "GENRE=%genre%" -T "ALBUMARTIST=%albumartist%" -T "ALBUM ARTIST=%albumartist%" -T "COMMENT=EAC Secure Mode, Test & Copy, AccurateRip, FLAC -8" %source%

TOC of the extracted CD

Track | Start | Length | Start sector | End sector
---------------------------------------------------------
1 | 0:00.00 | 3:18.57 | 0 | 14906
2 | 3:18.57 | 3:55.33 | 14907 | 32564
3 | 7:14.15 | 4:10.27 | 32565 | 51341
4 | 11:24.42 | 4:22.50 | 51342 | 71041
5 | 15:47.17 | 3:02.13 | 71042 | 84704
6 | 18:49.30 | 3:12.24 | 84705 | 99128
7 | 22:01.54 | 4:19.37 | 99129 | 118590
8 | 26:21.16 | 3:44.72 | 118591 | 135462

Track 1

Filename C:The Miracles - The Miracles
Музыка / Lossless / Разное
СКАЧАТЬ БЕСПЛАТНО  [183.2 MB]