15
июл
2018

The Natural Four - Natural Four (Reissue 1995) (1974)

Формат: FLAC, (tracks + .cue), lossless
Год выпуска: 1974
Страна: USA
Жанр: Soul, Funk
Продолжительность: 00:34:08
Описание:

1. Can This Be Real (03:25)
2. You Bring Out The Best In Me (04:16)
3. Try Love Again (04:22)
4. You Can't Keep Running Away (03:26)
5. This Is What's Happening Now (04:08 )
6. Love That Really Counts (04:20)
7. Try To Smile (02:55)
8. Love's Society (03:18 )
9. Things Will Be Better Tomorrow (03:30)


Доп. информация:
https://en.wikipedia.org/wiki/The_Natural_Four
eac
Exact Audio Copy V1.0 beta 3 from 29. August 2011

EAC extraction logfile from 6. September 2012, 16:01

Natural Four / Natural Four

Used drive : TSSTcorpCDDVDW SE-S084C Adapter: 2 ID: 0

Read mode : Secure
Utilize accurate stream : Yes
Defeat audio cache : Yes
Make use of C2 pointers : No

Read offset correction : 6
Overread into Lead-In and Lead-Out : No
Fill up missing offset samples with silence : Yes
Delete leading and trailing silent blocks : No
Null samples used in CRC calculations : Yes
Used interface : Native Win32 interface for Win NT & 2000
Gap handling : Appended to previous track

Used output format : User Defined Encoder
Selected bitrate : 1024 kBit/s
Quality : High
Add ID3 tag : No
Command line compressor : C:Program FilesExact Audio CopyFLACFLAC.EXE
Additional command line options : -8 -V -T "ARTIST=%artist%" -T "TITLE=%title%" -T "ALBUM=%albumtitle%" -T "DATE=%year%" -T "TRACKNUMBER=%tracknr%" -T "GENRE=%genre%" -T "PERFORMER=%albuminterpret%" -T "COMPOSER=%composer%" %haslyrics%--tag-from-file=LYRICS="%lyricsfile%"%haslyrics% -T "ALBUMARTIST=%albumartist%" -T "DISCNUMBER=%cdnumber%" -T "TOTALDISCS=%totalcds%" -T "TOTALTRACKS=%numtracks%" -T "COMMENT=%comment%" %source% -o %dest%

TOC of the extracted CD

Track | Start | Length | Start sector | End sector
---------------------------------------------------------
1 | 0:00.32 | 3:28.03 | 32 | 15634
2 | 3:28.35 | 4:19.12 | 15635 | 35071
3 | 7:47.47 | 4:25.03 | 35072 | 54949
4 | 12:12.50 | 3:29.20 | 54950 | 70644
5 | 15:41.70 | 4:11.20 | 70645 | 89489
6 | 19:53.15 | 4:23.12 | 89490 | 109226
7 | 24:16.27 | 2:59.15 | 109227 | 122666
8 | 27:15.42 | 3:21.25 | 122667 | 137766
9 | 30:36.67 | 3:31.13 | 137767 | 153604

Track 1

Filename E:LThe Natural Four - The Natural Four (1974) [FLAC]
Музыка / Lossless / Разное
СКАЧАТЬ БЕСПЛАТНО  [190.1 MB]