21
авг
2010

Kris Kross - Discography (1992)


Формат: FLAC, (tracks + .cue), lossless
Год выпуска: 1992-1996
Страна: США
Жанр: Hip-Hop
Продолжительность: 02:48:26
Описание:
1992 - Jump 00

Kris Kross - Discography
01 - Jump (radio edit) [03:19]
02 - Jump (extended mix) [05:11]
03 - Jump (instrumental) [03:18]
04 - Lil' Boys In Da Hood [03:01]

Код:
Exact Audio Copy V0.99 prebeta 3 from 28. July 2007
EAC extraction logfile from 21. November 2007, 10:52
Kris Kross / Jump (CD Single)
Used drive : TSSTcorpCD/DVDW SH-S182M Adapter: 1 ID: 1
Read mode : Secure
Utilize accurate stream : Yes
Defeat audio cache : Yes
Make use of C2 pointers : No
Read offset correction : 6
Overread into Lead-In and Lead-Out : No
Fill up missing offset samples with silence : Yes
Delete leading and trailing silent blocks : No
Null samples used in CRC calculations : Yes
Used interface : Native Win32 interface for Win NT & 2000
Gap handling : Appended to previous track
Used output format : User Defined Encoder
Selected bitrate : 768 kBit/s
Quality : High
Add ID3 tag : No
Command line compressor : C:Program FilesExact Audio CopyFLACFLAC.EXE
Additional command line options : -6 -V -T "ARTIST=%a" -T "TITLE=%t" -T "ALBUM=%g" -T "DATE=%y" -T "TRACKNUMBER=%n" -T "GENRE=%m" -T "COMMENT=%e" %s -o %d
TOC of the extracted CD
Track | Start | Length | Start sector | End sector
---------------------------------------------------------
1 | 0:00.00 | 3:19.20 | 0 | 14944
2 | 3:19.20 | 5:11.25 | 14945 | 38294
3 | 8:30.45 | 3:18.65 | 38295 | 53209
4 | 11:49.35 | 3:01.40 | 53210 | 66824
Track 1
Filename C:Documents and SettingsOwnerMy DocumentsMy Music-9 & A-Z - My Music XtrasConverted MusicKris Kross - Jump (CD Single) - 01 - Jump (radio edit).wav
Pre-gap length 0:00:02.00
Peak level 95.8 %
Track quality 100.0 %
Test CRC 690E0095
Copy CRC 690E0095
Accurately ripped (confidence 2) [2C74BF03]
Copy OK
Track 2
Filename C:Documents and SettingsOwnerMy DocumentsMy Music-9 & A-Z - My Music XtrasConverted MusicKris Kross - Jump (CD Single) - 02 - Jump (extended mix).wav
Pre-gap length 0:00:01.73
Peak level 95.8 %
Track quality 100.0 %
Test CRC 78955B7E
Copy CRC 78955B7E
Accurately ripped (confidence 1) [C5E92CE7]
Copy OK
Track 3
Filename C:Documents and SettingsOwnerMy DocumentsMy Music-9 & A-Z - My Music XtrasConverted MusicKris Kross - Jump (CD Single) - 03 - Jump (instrumental).wav
Pre-gap length 0:00:02.30
Peak level 95.7 %
Track quality 100.0 %
Test CRC 36BE2C7C
Copy CRC 36BE2C7C
Accurately ripped (confidence 1) [FF1F043F]
Copy OK
Track 4
Filename C:Documents and SettingsOwnerMy DocumentsMy Music-9 & A-Z - My Music XtrasConverted MusicKris Kross - Jump (CD Single) - 04 - Lil' Boys In Da Hood.wav
Pre-gap length 0:00:01.70
Peak level 95.4 %
Track quality 100.0 %
Test CRC 59DF396E
Copy CRC 59DF396E
Accurately ripped (confidence 1) [D1DFCF2D]
Copy OK
All tracks accurately ripped
No errors occurred
End of status report

1992 - Totally Krossed Out 00

Kris Kross - Discography
01 - Intro Interview [00:51]
02 - Jump [03:17]
03 - Lil' Boys In Da Hood [03:05]
04 - Warm It Up [04:09]
05 - The Way Of Ryme [02:59]
06 - Party [04:03]
07 - We're In Da House [00:39]
08 - A Real Bad Dream [01:58]
09 - It's A Shame [03:48]
10 - Can't Stop The Bum Rush [02:57]
11 - You Can't Get With This [02:24]
12 - I Missed The Bus [02:59]
13 - Outro [00:43]
14 - Party (Krossed Mix) [04:11]
15 - Jump (Extended Mix) [05:10]

Код:
Exact Audio Copy V0.99 prebeta 4 from 23. January 2008
EAC extraction logfile from 14. February 2009, 23:27
Kris Kross / Totally Krossed Out
Used drive : HL-DT-STDVDRAM GH20NS10 Adapter: 0 ID: 0
Read mode : Secure
Utilize accurate stream : Yes
Defeat audio cache : Yes
Make use of C2 pointers : No
Read offset correction : 667
Overread into Lead-In and Lead-Out : No
Fill up missing offset samples with silence : Yes
Delete leading and trailing silent blocks : No
Null samples used in CRC calculations : Yes
Used interface : Native Win32 interface for Win NT & 2000
Gap handling : Appended to previous track
Used output format : Internal WAV Routines
Sample format : 44.100 Hz; 16 Bit; Stereo
TOC of the extracted CD
Track | Start | Length | Start sector | End sector
---------------------------------------------------------
1 | 0:00.00 | 0:51.52 | 0 | 3876
2 | 0:51.52 | 3:17.00 | 3877 | 18651
3 | 4:08.52 | 3:05.05 | 18652 | 32531
4 | 7:13.57 | 4:09.63 | 32532 | 51269
5 | 11:23.45 | 2:59.67 | 51270 | 64761
6 | 14:23.37 | 4:03.20 | 64762 | 83006
7 | 18:26.57 | 0:39.13 | 83007 | 85944
8 | 19:05.70 | 1:58.62 | 85945 | 94856
9 | 21:04.57 | 3:48.03 | 94857 | 111959
10 | 24:52.60 | 2:57.05 | 111960 | 125239
11 | 27:49.65 | 2:24.12 | 125240 | 136051
12 | 30:14.02 | 2:59.23 | 136052 | 149499
13 | 33:13.25 | 0:43.17 | 149500 | 152741
14 | 33:56.42 | 4:11.35 | 152742 | 171601
15 | 38:08.02 | 5:10.38 | 171602 | 194889
Track 1
Filename X:ripkriss kross1 - Intro Interview.wav
Pre-gap length 0:00:02.00
Peak level 97.1 %
Track quality 100.0 %
Test CRC E34461B1
Copy CRC E34461B1
Accurately ripped (confidence 8) [72BE2B37]
Copy OK
Track 2
Filename X:ripkriss kross2 - Jump.wav
Peak level 90.1 %
Track quality 100.0 %
Test CRC 16E850A1
Copy CRC 16E850A1
Accurately ripped (confidence 8) [F798A94E]
Copy OK
Track 3
Filename X:ripkriss kross3 - Lil' Boys In Da Hood.wav
Pre-gap length 0:00:01.69
Peak level 96.2 %
Track quality 100.0 %
Test CRC 734B324B
Copy CRC 734B324B
Accurately ripped (confidence 8) [03AB8EEB]
Copy OK
Track 4
Filename X:ripkriss kross4 - Warm It Up.wav
Pre-gap length 0:00:01.04
Peak level 95.7 %
Track quality 100.0 %
Test CRC 7DEA6F82
Copy CRC 7DEA6F82
Accurately ripped (confidence 8) [5F81A61A]
Copy OK
Track 5
Filename X:ripkriss kross5 - The Way Of Ryme.wav
Pre-gap length 0:00:00.90
Peak level 93.3 %
Track quality 100.0 %
Test CRC A4CF0741
Copy CRC A4CF0741
Accurately ripped (confidence 8) [DF2E3F7C]
Copy OK
Track 6
Filename X:ripkriss kross6 - Party.wav
Pre-gap length 0:00:00.84
Peak level 94.4 %
Track quality 100.0 %
Test CRC CD323F59
Copy CRC CD323F59
Accurately ripped (confidence 8) [9F7C3D6E]
Copy OK
Track 7
Filename X:ripkriss kross7 - We're In Da House.wav
Pre-gap length 0:00:00.68
Peak level 84.1 %
Track quality 99.7 %
Test CRC E2483F09
Copy CRC E2483F09
Accurately ripped (confidence 8) [A4F79DCD]
Copy OK
Track 8
Filename X:ripkriss kross8 - A Real Bad Dream.wav
Pre-gap length 0:00:01.26
Peak level 93.5 %
Track quality 100.0 %
Test CRC 3ABDDC2C
Copy CRC 3ABDDC2C
Accurately ripped (confidence 8) [495FC479]
Copy OK
Track 9
Filename X:ripkriss kross9 - It's A Shame.wav
Peak level 95.4 %
Track quality 100.0 %
Test CRC 450ECCAD
Copy CRC 450ECCAD
Accurately ripped (confidence 8) [C4E7512C]
Copy OK
Track 10
Filename X:ripkriss kross10 - Can't Stop The Bum Rush.wav
Pre-gap length 0:00:01.40
Peak level 81.6 %
Track quality 100.0 %
Test CRC AE1E226A
Copy CRC AE1E226A
Accurately ripped (confidence 8) [BD0F859D]
Copy OK
Track 11
Filename X:ripkriss kross11 - You Can't Get With This.wav
Pre-gap length 0:00:01.00
Peak level 91.1 %
Track quality 100.0 %
Test CRC FE84F1A8
Copy CRC FE84F1A8
Accurately ripped (confidence 8) [76C68B50]
Copy OK
Track 12
Filename X:ripkriss kross12 - I Missed The Bus.wav
Pre-gap length 0:00:00.62
Peak level 90.4 %
Track quality 99.9 %
Test CRC C06BC4AE
Copy CRC C06BC4AE
Accurately ripped (confidence 8) [43CCD643]
Copy OK
Track 13
Filename X:ripkriss kross13 - Outro.wav
Peak level 85.0 %
Track quality 100.0 %
Test CRC C214E602
Copy CRC C214E602
Accurately ripped (confidence 8) [F123195E]
Copy OK
Track 14
Filename X:ripkriss kross14 - Party (Krossed Mix).wav
Pre-gap length 0:00:01.74
Peak level 95.4 %
Track quality 100.0 %
Test CRC ECEC0229
Copy CRC ECEC0229
Accurately ripped (confidence 8) [244607E6]
Copy OK
Track 15
Filename X:ripkriss kross15 - Jump (Extended Mix).wav
Pre-gap length 0:00:00.74
Peak level 95.5 %
Track quality 99.9 %
Test CRC D07B4679
Copy CRC D07B4679
Accurately ripped (confidence 8) [D28BEBD9]
Copy OK
All tracks accurately ripped
No errors occurred
End of status report

1993 - Da Bomb 00

Kris Kross - Discography
01 - Intro [00:19]
02 - Da Bomb [04:10]
03 - Sound Of My Hood [02:40]
04 - It Don't Stop (Hip Hop Classic) [02:56]
05 - D.J. Nabs Break [01:41]
06 - Alright [04:03]
07 - I'm Real [03:14]
08 - 2 Da Beat Ch'yall [03:41]
09 - Freak Da Funk [02:59]
10 - A Lot 2 Live 4 [02:14]
11 - Take Um Out [04:35]
12 - Alright (Extended Remix) [06:01]

Код:
Exact Audio Copy V0.99 prebeta 5 from 4. May 2009

EAC extraction logfile from 28. January 2010, 22:24

Kris Kross / Da Bomb

Used drive : HL-DT-STDVDRAM GH20NS15 Adapter: 4 ID: 0

Read mode : Secure
Utilize accurate stream : Yes
Defeat audio cache : Yes
Make use of C2 pointers : No

Read offset correction : 667
Overread into Lead-In and Lead-Out : No
Fill up missing offset samples with silence : Yes
Delete leading and trailing silent blocks : No
Null samples used in CRC calculations : Yes
Used interface : Native Win32 interface for Win NT & 2000
Gap handling : Appended to previous track

Used output format : User Defined Encoder
Selected bitrate : 320 kBit/s
Quality : High
Add ID3 tag : No
Command line compressor : C:Program FilesFLACflac.exe
Additional command line options : -V -8 -T "artist=%a" -T "title=%t" -T "album=%g" -T "date=%y" -T "tracknumber=%n" -T "genre=%m" %s

TOC of the extracted CD

Track | Start | Length | Start sector | End sector
---------------------------------------------------------
1 | 0:00.00 | 0:19.27 | 0 | 1451
2 | 0:19.27 | 4:10.68 | 1452 | 20269
3 | 4:30.20 | 2:40.05 | 20270 | 32274
4 | 7:10.25 | 2:56.40 | 32275 | 45514
5 | 10:06.65 | 1:41.50 | 45515 | 53139
6 | 11:48.40 | 4:03.25 | 53140 | 71389
7 | 15:51.65 | 3:14.32 | 71390 | 85971
8 | 19:06.22 | 3:41.15 | 85972 | 102561
9 | 22:47.37 | 2:59.38 | 102562 | 116024
10 | 25:47.00 | 2:14.65 | 116025 | 126139
11 | 28:01.65 | 4:35.37 | 126140 | 146801
12 | 32:37.27 | 6:01.60 | 146802 | 173936

Track 1

Filename D:Kris Kross - 1993 - Da Bomb [FLAC]1 - Intro.wav

Pre-gap length 0:00:02.00

Peak level 99.4 %
Track quality 100.0 %
Test CRC 60A70437
Copy CRC 60A70437
Accurately ripped (confidence 3) [E774EBCF]
Copy OK

Track 2

Filename D:Kris Kross - 1993 - Da Bomb [FLAC]2 - Da Bomb.wav

Peak level 97.9 %
Track quality 100.0 %
Test CRC CF622598
Copy CRC CF622598
Accurately ripped (confidence 3) [E16D0767]
Copy OK

Track 3

Filename D:Kris Kross - 1993 - Da Bomb [FLAC]3 - Sound Of My Hood.wav

Peak level 97.5 %
Track quality 99.9 %
Test CRC 52ABEC18
Copy CRC 52ABEC18
Accurately ripped (confidence 3) [549DD064]
Copy OK

Track 4

Filename D:Kris Kross - 1993 - Da Bomb [FLAC]4 - It Don't Stop (Hip Hop Classic).wav

Peak level 98.0 %
Track quality 100.0 %
Test CRC F934C227
Copy CRC F934C227
Accurately ripped (confidence 3) [90CF9839]
Copy OK

Track 5

Filename D:Kris Kross - 1993 - Da Bomb [FLAC]5 - D.J. Nabs Break.wav

Peak level 98.1 %
Track quality 100.0 %
Test CRC 03EF5A21
Copy CRC 03EF5A21
Accurately ripped (confidence 3) [C3D6F070]
Copy OK

Track 6

Filename D:Kris Kross - 1993 - Da Bomb [FLAC]6 - Alright.wav

Peak level 98.1 %
Track quality 100.0 %
Test CRC 8F1DB35E
Copy CRC 8F1DB35E
Accurately ripped (confidence 3) [661C5029]
Copy OK

Track 7

Filename D:Kris Kross - 1993 - Da Bomb [FLAC]7 - I'm Real.wav

Peak level 97.6 %
Track quality 100.0 %
Test CRC 9B44786D
Copy CRC 9B44786D
Accurately ripped (confidence 3) [077EA892]
Copy OK

Track 8

Filename D:Kris Kross - 1993 - Da Bomb [FLAC]8 - 2 Da Beat Ch'yall.wav

Peak level 97.6 %
Track quality 100.0 %
Test CRC D2DEDE4E
Copy CRC D2DEDE4E
Accurately ripped (confidence 3) [6993BCEC]
Copy OK

Track 9

Filename D:Kris Kross - 1993 - Da Bomb [FLAC]9 - Freak Da Funk.wav

Peak level 98.1 %
Track quality 100.0 %
Test CRC C3E1DD10
Copy CRC C3E1DD10
Accurately ripped (confidence 3) [45ED9A78]
Copy OK

Track 10

Filename D:Kris Kross - 1993 - Da Bomb [FLAC]10 - A Lot 2 Live 4.wav

Peak level 97.6 %
Track quality 100.0 %
Test CRC 59A0D3D4
Copy CRC 59A0D3D4
Accurately ripped (confidence 3) [A048C4FA]
Copy OK

Track 11

Filename D:Kris Kross - 1993 - Da Bomb [FLAC]11 - Take Um Out.wav

Peak level 97.8 %
Track quality 100.0 %
Test CRC 06A4EB6B
Copy CRC 06A4EB6B
Accurately ripped (confidence 3) [59A8C0D7]
Copy OK

Track 12

Filename D:Kris Kross - 1993 - Da Bomb [FLAC]12 - Alright (Extended Remix).wav

Peak level 97.6 %
Track quality 100.0 %
Test CRC F45A98E8
Copy CRC F45A98E8
Accurately ripped (confidence 2) [F5A83DDD]
Copy OK

All tracks accurately ripped

No errors occurred

End of status report

1996 - The Best Of Kris Kross - Remixed - 92/94/96 00

Kris Kross - Discography
01 - Jump (Super Cat Dessork Mix) [03:55]
02 - Warm It Up (Dupri's Mix) [03:52]
03 - It's A Shame (Playin' The Game Mix) [04:44]
04 - The Way Of The Rhyme (Live Version) [04:20]
05 - Alright (Humps For Your Trunk Mix) [04:09]
06 - Da Bomb (Remix The Explosive Mix) [03:53]
07 - I'm Real (Butcher Mix) [03:29]
08 - Tonite's Tha Mix (Kris Kross Redman Remix) [03:25]
09 - Live And Die For Hip Hop (DJ Clark Kent Mix) [03:48]
10 - Raide [03:10]

Код:
Exact Audio Copy V0.99 prebeta 4 from 23. January 2008
EAC extraction logfile from 12. October 2009, 17:31
Kris Kross / The Best Of Kris Kross Remixed [FLAC]
Used drive : PIONEER DVD-RW DVR-117F Adapter: 0 ID: 1
Read mode : Secure
Utilize accurate stream : Yes
Defeat audio cache : Yes
Make use of C2 pointers : No
Read offset correction : 96
Overread into Lead-In and Lead-Out : No
Fill up missing offset samples with silence : Yes
Delete leading and trailing silent blocks : No
Null samples used in CRC calculations : Yes
Used interface : Installed external ASPI interface
Gap handling : Appended to previous track
Used output format : User Defined Encoder
Selected bitrate : 1024 kBit/s
Quality : High
Add ID3 tag : No
Command line compressor : C:Program Files (x86)FLACflac.exe
Additional command line options : -8 -V -T "ARTIST=%a" -T "TITLE=%t" -T "ALBUM=%g" -T "DATE=%y" -T "TRACKNUMBER=%n" -T "GENRE=%m" -T "COMMENT=%e" %s -o %d
TOC of the extracted CD
Track | Start | Length | Start sector | End sector
---------------------------------------------------------
1 | 0:00.00 | 3:55.00 | 0 | 17624
2 | 3:55.00 | 3:52.07 | 17625 | 35031
3 | 7:47.07 | 4:44.28 | 35032 | 56359
4 | 12:31.35 | 4:20.42 | 56360 | 75901
5 | 16:52.02 | 4:09.58 | 75902 | 94634
6 | 21:01.60 | 3:53.62 | 94635 | 112171
7 | 24:55.47 | 3:29.33 | 112172 | 127879
8 | 28:25.05 | 3:25.30 | 127880 | 143284
9 | 31:50.35 | 3:48.67 | 143285 | 160451
10 | 35:39.27 | 3:10.07 | 160452 | 174708
Track 1
Filename Z:Kris Kross - 1996 - The Best Of Kris Kross Remixed [FLAC]1 Kris Kross - Jump (Super Cat Dessork Mix).wav
Pre-gap length 0:00:02.00
Peak level 98.8 %
Track quality 100.0 %
Test CRC E24FB513
Copy CRC E24FB513
Cannot be verified as accurate (confidence 2) [1EE44EA7], AccurateRip returned [1706F6A7]
Copy OK
Track 2
Filename Z:Kris Kross - 1996 - The Best Of Kris Kross Remixed [FLAC]2 Kris Kross - Warm It Up (Dupri's Mix).wav
Pre-gap length 0:00:02.18
Peak level 83.1 %
Track quality 99.9 %
Test CRC 1AC942D6
Copy CRC 1AC942D6
Cannot be verified as accurate (confidence 2) [1F1F86B4], AccurateRip returned [EA761794]
Copy OK
Track 3
Filename Z:Kris Kross - 1996 - The Best Of Kris Kross Remixed [FLAC]3 Kris Kross - It's A Shame (Playin' The Game Mix).wav
Pre-gap length 0:00:02.20
Peak level 93.2 %
Track quality 100.0 %
Test CRC 67301069
Copy CRC 67301069
Cannot be verified as accurate (confidence 2) [68A59519], AccurateRip returned [AA4AF439]
Copy OK
Track 4
Filename Z:Kris Kross - 1996 - The Best Of Kris Kross Remixed [FLAC]4 Kris Kross - The Way Of The Rhyme (Live Version).wav
Pre-gap length 0:00:02.15
Peak level 98.8 %
Track quality 100.0 %
Test CRC 2F2B0AEC
Copy CRC 2F2B0AEC
Cannot be verified as accurate (confidence 2) [F79A43D4], AccurateRip returned [46BD0D34]
Copy OK
Track 5
Filename Z:Kris Kross - 1996 - The Best Of Kris Kross Remixed [FLAC]5 Kris Kross - Alright (Humps For Your Trunk Mix).wav
Pre-gap length 0:00:02.00
Peak level 98.8 %
Track quality 100.0 %
Test CRC 72E8EC65
Copy CRC 72E8EC65
Cannot be verified as accurate (confidence 2) [B0CB4D26], AccurateRip returned [6E8058E6]
Copy OK
Track 6
Filename Z:Kris Kross - 1996 - The Best Of Kris Kross Remixed [FLAC]6 Kris Kross - Da Bomb (Remix The Explosive Mix).wav
Pre-gap length 0:00:02.20
Peak level 88.1 %
Track quality 100.0 %
Test CRC EB149CA8
Copy CRC EB149CA8
Cannot be verified as accurate (confidence 2) [49841857], AccurateRip returned [0B2B51AF]
Copy OK
Track 7
Filename Z:Kris Kross - 1996 - The Best Of Kris Kross Remixed [FLAC]7 Kris Kross - I'm Real (Butcher Mix).wav
Pre-gap length 0:00:02.15
Peak level 98.8 %
Track quality 100.0 %
Test CRC 6DB0FA82
Copy CRC 6DB0FA82
Cannot be verified as accurate (confidence 2) [F68527D6], AccurateRip returned [D04F8BFE]
Copy OK
Track 8
Filename Z:Kris Kross - 1996 - The Best Of Kris Kross Remixed [FLAC]8 Kris Kross - Tonite's Tha Mix (Kris Kross Redman Remix).wav
Pre-gap length 0:00:02.20
Peak level 93.3 %
Track quality 100.0 %
Test CRC 107999D5
Copy CRC 107999D5
Cannot be verified as accurate (confidence 2) [AC15393B], AccurateRip returned [5AB2F783]
Copy OK
Track 9
Filename Z:Kris Kross - 1996 - The Best Of Kris Kross Remixed [FLAC]9 Kris Kross - Live And Die For Hip Hop (DJ Clark Kent Mix).wav
Pre-gap length 0:00:02.08
Peak level 98.8 %
Track quality 100.0 %
Test CRC 25C67B2E
Copy CRC 25C67B2E
Cannot be verified as accurate (confidence 2) [CBE3F6B3], AccurateRip returned [59A85ED3]
Copy OK
Track 10
Filename Z:Kris Kross - 1996 - The Best Of Kris Kross Remixed [FLAC]10 Kris Kross - Raide.wav
Pre-gap length 0:00:01.52
Peak level 100.0 %
Track quality 100.0 %
Test CRC B27E2A58
Copy CRC B27E2A58
Cannot be verified as accurate (confidence 2) [09241BB9], AccurateRip returned [61370531]
Copy OK
No tracks could be verified as accurate
You may have a different pressing from the one(s) in the database
No errors occurred
End of status report

1996 - Young, Rich & Dangerous (Columbia rec) 00

Kris Kross - Discography
01 - Some Cut Up [01:45]
02 - When The Homies Show Up [01:31]
03 - Tonite's Tha Night [03:16]
04 - Interview [00:39]
05 - Young, Rich And Dangerous [03:50]
06 - Live And Die For Hip Hop [03:43]
07 - Money, Power and Fame [03:48]
08 - It's A Group Thang [00:51]
09 - Mackin' Ain't Easy [02:58]
10 - Da Streets Ain't Right [03:00]
11 - Hey Sexy [03:40]
12 - Tonite's Tha Night (Remix) [03:41]

Код:
EAC extraction logfile from 10. January 2009, 2:47 for CD
Kris Kross / Young, Rich & Dangerous
Used drive : ASUS CRW-5232A4 Adapter: 4 ID: 0
Read mode : Secure with NO C2, accurate stream, disable cache
Read offset correction : 6
Overread into Lead-In and Lead-Out : No
Used output format : C:Program Files (x86)FLACflac.exe (User Defined Encoder)
128 kBit/s
Additional command line options : -V -8 -T "artist=%a" -T "title=%t" -T "album=%g" -T "date=%y" -T "tracknumber=%n" -T "genre=%m" %s
Other options :
Fill up missing offset samples with silence : Yes
Delete leading and trailing silent blocks : No
Installed external ASPI interface
Track 1
Filename F:Music1 TORRENTSKris KrossYoung, Rich & DangerousFLACKris Kross - Young, Rich & Dangerous1 - Some Cut Up.wav
Pre-gap length 0:00:02.00
Peak level 96.8 %
Track quality 100.0 %
Test CRC CA3DA7DE
Copy CRC CA3DA7DE
Copy OK
Track 2
Filename F:Music1 TORRENTSKris KrossYoung, Rich & DangerousFLACKris Kross - Young, Rich & Dangerous2 - When The Homies Show Up.wav
Peak level 95.5 %
Track quality 100.0 %
Test CRC 8F5DCE4C
Copy CRC 8F5DCE4C
Copy OK
Track 3
Filename F:Music1 TORRENTSKris KrossYoung, Rich & DangerousFLACKris Kross - Young, Rich & Dangerous3 - Tonite's Tha Night.wav
Peak level 98.2 %
Track quality 100.0 %
Test CRC 14B6E271
Copy CRC 14B6E271
Copy OK
Track 4
Filename F:Music1 TORRENTSKris KrossYoung, Rich & DangerousFLACKris Kross - Young, Rich & Dangerous4 - Interview.wav
Peak level 62.3 %
Track quality 100.0 %
Test CRC 071D557E
Copy CRC 071D557E
Copy OK
Track 5
Filename F:Music1 TORRENTSKris KrossYoung, Rich & DangerousFLACKris Kross - Young, Rich & Dangerous5 - Young, Rich And Dangerous.wav
Peak level 99.9 %
Track quality 100.0 %
Test CRC F79A8988
Copy CRC F79A8988
Copy OK
Track 6
Filename F:Music1 TORRENTSKris KrossYoung, Rich & DangerousFLACKris Kross - Young, Rich & Dangerous6 - Live And Die For Hip Hop.wav
Peak level 100.0 %
Track quality 100.0 %
Test CRC 08A87B7E
Copy CRC 08A87B7E
Copy OK
Track 7
Filename F:Music1 TORRENTSKris KrossYoung, Rich & DangerousFLACKris Kross - Young, Rich & Dangerous7 - Money, Power and Fame.wav
Peak level 100.0 %
Track quality 100.0 %
Test CRC 2D947A99
Copy CRC 2D947A99
Copy OK
Track 8
Filename F:Music1 TORRENTSKris KrossYoung, Rich & DangerousFLACKris Kross - Young, Rich & Dangerous8 - It's A Group Thang.wav
Peak level 86.5 %
Track quality 100.0 %
Test CRC 5CEFB52B
Copy CRC 5CEFB52B
Copy OK
Track 9
Filename F:Music1 TORRENTSKris KrossYoung, Rich & DangerousFLACKris Kross - Young, Rich & Dangerous9 - Mackin' Ain't Easy.wav
Peak level 99.9 %
Track quality 100.0 %
Test CRC 29F5392B
Copy CRC 29F5392B
Copy OK
Track 10
Filename F:Music1 TORRENTSKris KrossYoung, Rich & DangerousFLACKris Kross - Young, Rich & Dangerous10 - Da Streets Ain't Right.wav
Peak level 97.4 %
Track quality 100.0 %
Test CRC C307E3B9
Copy CRC C307E3B9
Copy OK
Track 11
Filename F:Music1 TORRENTSKris KrossYoung, Rich & DangerousFLACKris Kross - Young, Rich & Dangerous11 - Hey Sexy.wav
Peak level 97.7 %
Track quality 100.0 %
Test CRC 825C7FD6
Copy CRC 825C7FD6
Copy OK
Track 12
Filename F:Music1 TORRENTSKris KrossYoung, Rich & DangerousFLACKris Kross - Young, Rich & Dangerous12 - Tonite's Tha Night (Remix).wav
Peak level 99.9 %
Track quality 99.9 %
Test CRC 2CD28A39
Copy CRC 2CD28A39
Copy OK
No errors occured
End of status report



Доп. информация
Молодежный рэп-дуэт Kriss Kross сформировался в Атланте, штат Джорджия, США. Дуэт заявил о себе дебютным синглом "Jump", который в течении восьми недель возвышался в Billboard Hot 100 Singles Chart. Дуэт включает в себя участников: Chris ''Mack Daddy'' Kelly (родился 1 мая 1978 года в США) и Chris ''Daddy Mack'' Smith (родился 10 января 1979 года в США). В момент выхода дебютного сингла Jump, обоим участникам дуэта было всего лишь по 13 лет, а сингл был отмечен рекордным рейтингом продаж, за последние пятнадцать лет, в момент его выхода в свет. История дуэта берет свое начало в 1991 году, когда их заметил известный продюссер Jermaine Dupri. В следствии чего, ребята заключили контракт с Нью Йорским лэйблом "Ruffhouse", который кстати являлся "родным домом" известного рэппера Tim Dog, а так же многих других. Дебютный альбом рэп-дуэта Kris Kross под названием "Totally Krossed Out" вышел в 1992 году и был распродан рекордным тиражем, который составлял свыше четырех миллионов копий.

Год спустя дуэт выпускает альбом "Da Bomb", который не пользовался таким успехом, который им пренес дебют. Даже не смотря на то, что сингл "Tonight's Tha Night" был замечен в различных чартах. Рэп-дуэт Kris Kross закончил свою столь не продолжительную карьеру в 1996 году, выпустив последний, в своей дискографии, альбом "Young, Rich & Dangerous".
Музыка / Lossless / Дискогр. (Rap, Hip-hop, R'n'B)
СКАЧАТЬ БЕСПЛАТНО  [1.0 GB]